#TITLE:Andy Milonakis Theme;
#SUBTITLE:T3H PWN JOKE FILE;
#ARTIST:Andy Milonakis;
#TITLETRANSLIT:;
#SUBTITLETRANSLIT:;
#ARTISTTRANSLIT:;
#CREDIT:;
#BANNER:theme.png;
#BACKGROUND:themebg.png;
#LYRICSPATH:;
#CDTITLE:!feer-cdtitle.png;
#MUSIC:Andy Milonakis - Theme.mp3;
#OFFSET:0.020;
#SAMPLESTART:33.249;
#SAMPLELENGTH:12.000;
#SELECTABLE:YES;
#BPMS:0.000=189.700;
#STOPS:51.000=1.640
;
#BGCHANGES:;
// cache tags:
#FIRSTBEAT:1.500;
#LASTBEAT:133.750;
#SONGFILENAME:Songs/Music V.I.P ^_^/Andy Milonakis Theme/theme.sm;
#HASMUSIC:1;
#HASBANNER:1;
#MUSICLENGTH:48.300;
// end cache tags

//---------------dance-single - ----------------
#NOTES:
     dance-single:
     :
     Hard:
     9:
     1.000,0.900,1.000,0.000,0.072,178.000,178.000,0.000,0.000,0.000:
0000
0000
0000
0110
0011
0000
1100
0000
,
0011
0011
0011
0000
0000
0110
0011
0110
,
1010
0101
1001
0000
0011
0000
1010
0000
,
0110
0110
0110
0000
0000
0011
0101
0011
,
1001
0110
1001
0000
0011
1100
0110
0000
,
0101
0101
0101
0000
0000
0101
0011
0101
,
1010
0101
0011
0000
1001
0110
1010
0000
,
0101
0011
0000
1010
0000
0101
0101
0101
,
0101
0101
0101
0000
1010
0011
0011
0000
,
0101
0000
0000
1010
0000
0000
0110
0000
0101
0000
0110
0000
0000
0000
1100
0000
,
0110
0000
0101
0011
0000
1100
0110
1001
,
0011
1010
0110
0011
0000
1100
0011
0000
,
1100
0000
0110
0011
0000
0000
0000
0000
,
0000
0000
1100
0110
,
0011
0011
0011
0000
0000
0000
1100
1100
,
1100
1100
1100
1100
0011
1100
1001
0000
,
0101
0000
1100
0110
0000
0011
1010
0000
,
0011
0000
0110
0000
1010
0000
0000
0101
0000
0000
1100
0000
0011
0000
0000
0000
,
0101
0000
0011
1100
0110
0000
0101
0101
,
0101
0101
0101
0000
0000
0110
0011
0000
,
1100
0110
0011
0110
0000
1100
1001
0000
,
0101
0000
1100
0000
0000
0011
0110
1010
,
0101
1001
0110
0000
1100
0110
0000
0011
,
0110
1010
0101
0000
1010
0000
0000
1001
,
1001
1001
1001
0000
0101
1010
0000
0101
,
1010
0101
0011
1010
,
1001
0000
0101
0000
0011
1100
0000
0011
,
1010
0000
0101
0000
1010
0110
0101
0000
,
1010
0000
0101
0000
0011
1010
0000
0101
,
0101
0101
0101
0000
1100
0000
0011
0000
,
0101
0000
1100
0000
0110
0101
0000
1100
,
1100
1100
1100
0000
1001
0000
0110
0000
,
0011
0000
0000
0000
1010
0000
0000
0000
0011
0000
1010
0000
0000
0101
0000
0101
,
0000
0101
0000
0101
0000
0000
0000
1010
0000
0000
0000
0000
0000
0000
0000
0000
;
